<?xml version="1.0" standalone="no"?>
<!DOCTYPE svg PUBLIC "-//W3C//DTD SVG 1.1//EN" "http://www.w3.org/Graphics/SVG/1.1/DTD/svg11.dtd" >
<svg xmlns="http://www.w3.org/2000/svg">
<metadata>
This is a custom SVG webfont generated by Font Squirrel.
Copyright   : Rodrigo Ramirez frescotypecom
Foundry     : Rodrigo Ramirez
</metadata>
<defs>
<font id="webfont3jnenQ5S" horiz-adv-x="993" >
<font-face units-per-em="2048" ascent="1536" descent="-512" />
<missing-glyph horiz-adv-x="450" />
<glyph unicode=" "  horiz-adv-x="450" />
<glyph unicode="&#x09;" horiz-adv-x="450" />
<glyph unicode="&#xa0;" horiz-adv-x="450" />
<glyph unicode="!" horiz-adv-x="559" d="M201 885v528h157v-528l-26 -477h-105zM203 0v227h151v-227h-151z" />
<glyph unicode="&#x22;" horiz-adv-x="616" d="M117 1413h139l-16 -612h-107zM360 1413h140l-17 -612h-106z" />
<glyph unicode="#" horiz-adv-x="1099" d="M184 428v129h144l39 193h-183v127h205l62 319h118l-63 -319h176l61 319h117l-61 -319h116v-127h-139l-39 -193h178v-129h-200l-58 -293h-116l55 293h-174l-55 -293h-119l57 293h-121zM444 557h177l36 193h-174z" />
<glyph unicode="$" horiz-adv-x="972" d="M160 254l45 115q39 -33 111.5 -58.5t142.5 -25.5q86 0 144.5 47t58.5 125q0 66 -50.5 109.5t-122 70.5t-144.5 58.5t-123 95t-50 157.5q0 96 63.5 167t186.5 89q0 35 -2 103.5t-2 103.5h149l-6 -203q145 -10 246 -63q-18 -53 -35 -115q-121 63 -266 64q-90 0 -140.5 -42 t-50.5 -108q0 -57 51.5 -97t124 -66.5t145.5 -58.5t124 -96.5t51 -158.5q0 -104 -65.5 -184t-182.5 -105l4 -198h-147q0 33 1 94t1 94q-145 8 -262 86z" />
<glyph unicode="%" horiz-adv-x="1824" d="M100 979q0 215 86 324.5t230 109.5q326 0 325 -434q0 -223 -91 -330.5t-234 -107.5q-137 0 -226.5 107.5t-89.5 330.5zM250 979q0 -326 166 -326q176 0 176 326q0 178 -43 249.5t-133 71.5q-84 0 -125 -73.5t-41 -247.5zM608 -92l500 1552h94l-500 -1552h-94zM1081 418 q0 215 86 323.5t230 108.5q326 0 325 -432q0 -225 -91 -331.5t-234 -106.5q-137 0 -226.5 107.5t-89.5 330.5zM1233 418q0 -326 164 -326q176 0 176 326q0 176 -43 248.5t-133 72.5q-82 0 -123 -73.5t-41 -247.5z" />
<glyph unicode="&#x26;" horiz-adv-x="1220" d="M92 395q0 143 73 233.5t204 166.5l-11 16q-127 172 -127 307q0 141 92.5 218t227.5 77q139 0 222 -74.5t83 -214.5q0 -66 -21.5 -119t-69.5 -98t-87 -71.5t-111 -67.5l324 -426q63 117 119 328l133 -33q-59 -260 -164 -410l172 -227h-178l-94 121q-141 -141 -353 -141 q-172 0 -303 106t-131 309zM252 397q0 -139 85 -216t198 -77q160 0 264 121l-353 465q-92 -61 -143 -128t-51 -165zM385 1112q0 -102 102 -238l9 -12q109 61 163 114.5t54 137.5q0 88 -44 132t-118 44q-72 0 -119 -45t-47 -133z" />
<glyph unicode="'" horiz-adv-x="374" d="M117 1413h139l-16 -612h-107z" />
<glyph unicode="(" horiz-adv-x="552" d="M109 698q0 231 92 442.5t225 325.5l78 -75q-98 -98 -169 -295t-71 -398q0 -205 71 -400.5t171 -293.5l-80 -76q-133 115 -225 326t-92 444z" />
<glyph unicode=")" horiz-adv-x="552" d="M47 4q100 98 171 294t71 400q0 201 -71 397.5t-169 295.5l78 75q133 -115 225 -325.5t92 -442.5q0 -233 -92 -444t-225 -326z" />
<glyph unicode="*" horiz-adv-x="956" d="M109 1085l38 121l267 -86v277h127v-277l268 86l37 -121l-264 -86l163 -225l-104 -74l-164 224l-164 -226l-102 76l164 223z" />
<glyph unicode="+" horiz-adv-x="946" d="M133 543v114h275v291h120v-291h285v-114h-285v-305h-120v305h-275z" />
<glyph unicode="," horiz-adv-x="368" d="M106 10v219h154v-233q0 -127 -36 -178t-118 -64v58q29 10 39.5 50t10.5 138z" />
<glyph unicode="-" horiz-adv-x="946" d="M143 508v108h660v-108h-660z" />
<glyph unicode="." horiz-adv-x="362" d="M104 0v229h154v-229h-154z" />
<glyph unicode="/" horiz-adv-x="614" d="M10 -92l500 1552h94l-500 -1552h-94z" />
<glyph unicode="0" horiz-adv-x="1099" d="M98 700q0 713 447 713q457 0 456 -713q0 -721 -456 -720q-242 0 -344.5 188t-102.5 532zM258 700q0 -184 23.5 -308t89 -202.5t174.5 -78.5q162 0 229.5 154.5t67.5 434.5q0 582 -297 582q-156 0 -221.5 -151.5t-65.5 -430.5z" />
<glyph unicode="1" horiz-adv-x="1099" d="M170 1126q111 23 222.5 101t172.5 166h125v-1272h252v-121h-682v121h275v895q0 98 10 190q-45 -63 -153.5 -124.5t-198.5 -84.5z" />
<glyph unicode="2" horiz-adv-x="1099" d="M125 1329q190 84 389 84q186 0 318.5 -101.5t132.5 -293.5q0 -170 -133.5 -354.5t-524.5 -538.5q37 8 154 8h514v-133h-842v125q274 246 426 418t198 268t46 190q2 143 -88 212t-226 69q-158 0 -315 -72z" />
<glyph unicode="3" horiz-adv-x="1099" d="M127 78l39 125q170 -92 332 -92q139 0 227 78.5t88 207.5q0 127 -92 186.5t-248 59.5h-74v129h62q137 0 216 79t79 193.5t-79 175t-208 60.5q-158 0 -289 -70l-51 119q186 84 371 84q182 0 302 -97t120 -251q0 -131 -86 -227.5t-183 -116.5v-6q123 -14 221.5 -97 t98.5 -225q0 -170 -134 -291.5t-333 -121.5q-191 0 -379 98z" />
<glyph unicode="4" horiz-adv-x="1099" d="M94 381v119l568 889v4h161v-875h170v-137h-170v-381h-153v381h-576zM236 518h434v662z" />
<glyph unicode="5" horiz-adv-x="1099" d="M123 76l41 127q168 -92 325 -92q145 0 233.5 97t88.5 263q0 156 -78 232.5t-217 76.5q-70 0 -140.5 -30.5t-107.5 -69.5l-125 43v670h723l-14 -133h-555v-357q0 -43 -12 -104q115 115 288 114q170 0 286 -113.5t116 -322.5q0 -213 -137.5 -355t-337.5 -142 q-193 0 -377 96z" />
<glyph unicode="6" horiz-adv-x="1099" d="M104 700q0 348 147.5 530.5t364.5 182.5q158 0 289 -49l-26 -125q-127 47 -261 47q-78 0 -136 -29.5t-94 -73.5t-62.5 -126t-40 -155t-29.5 -189q51 92 145.5 144t212.5 52q168 0 273.5 -119.5t105.5 -314.5q0 -211 -120.5 -353t-317.5 -142q-215 0 -333 189t-118 531z M262 555q16 -213 92 -331t201 -118q137 0 206.5 101.5t69.5 259.5q0 145 -67.5 228t-192.5 83q-123 0 -206 -65.5t-103 -157.5z" />
<glyph unicode="7" horiz-adv-x="1099" d="M129 1255v138h844v-138l-617 -1255h-168l621 1255h-680z" />
<glyph unicode="8" horiz-adv-x="1099" d="M117 360q0 244 289 357q-123 57 -191 138t-68 218q0 154 116 247t282 93q178 0 292.5 -93t114.5 -245q0 -209 -268 -340q143 -61 221 -140t78 -222q0 -166 -123 -279.5t-315 -113.5q-184 0 -306 109t-122 271zM272 367q0 -123 85 -198t188 -75q113 0 196.5 74t83.5 205 q0 59 -22.5 105t-71.5 80t-90 54.5t-113 49.5l-30 12q-115 -59 -170.5 -130t-55.5 -177zM303 1071q0 -61 22.5 -109.5t69.5 -84t88 -56t113 -49.5q199 121 199 295q0 109 -71 169t-179 60q-104 0 -173 -60.5t-69 -164.5z" />
<glyph unicode="9" horiz-adv-x="1099" d="M104 940q0 217 117 345t314 128q219 0 340.5 -166t121.5 -518q0 -385 -133 -567t-370 -182q-162 0 -334 79l33 127q156 -78 296 -77q344 0 357 555q-156 -164 -344 -164q-172 0 -285 120.5t-113 319.5zM266 944q0 -147 73 -229t200 -82q156 0 309 149q-14 502 -316 502 q-131 0 -198.5 -95t-67.5 -245z" />
<glyph unicode=":" horiz-adv-x="368" d="M109 0v229h151v-229h-151zM109 772v232h151v-232h-151z" />
<glyph unicode=";" horiz-adv-x="368" d="M106 10v219h154v-233q0 -127 -36 -178t-118 -64v60q29 10 39.5 50t10.5 136zM109 772v232h151v-232h-151z" />
<glyph unicode="&#x3c;" horiz-adv-x="819" d="M61 467v231l697 310v-168l-600 -252v-6l600 -238v-166z" />
<glyph unicode="=" horiz-adv-x="937" d="M137 362v130h664v-130h-664zM137 674v127h664v-127h-664z" />
<glyph unicode="&#x3e;" horiz-adv-x="819" d="M61 178v166l598 238v6l-598 252v168l697 -310v-231z" />
<glyph unicode="?" horiz-adv-x="866" d="M66 1331q176 82 331 82q174 0 288 -98t114 -277q0 -94 -36 -169.5t-86 -125t-101.5 -94.5t-87 -101t-35.5 -122v-55h-142v84q0 72 35 133t84 105l98 89q49 45 84 107.5t35 138.5q0 131 -76.5 194.5t-191.5 63.5q-121 0 -268 -76zM303 0v227h152v-227h-152z" />
<glyph unicode="@" horiz-adv-x="2048" d="M168 457q0 387 253 638t628 251q367 0 599 -230.5t232 -589.5q0 -276 -159.5 -450t-350.5 -174q-66 0 -127 25.5t-88 60.5l23 166q-121 -174 -324 -174q-123 0 -216 116.5t-93 339.5q0 238 136 392.5t335 154.5q80 0 150.5 -40t105.5 -99q4 16 18.5 56t20.5 63h106 l-112 -957q12 -12 77 -12q147 0 271.5 146.5t124.5 385.5q0 324 -201 523.5t-528 199.5q-340 0 -559.5 -222t-219.5 -570q0 -328 185 -549h-121q-166 244 -166 549zM698 436q0 -174 62.5 -257t159.5 -83q133 0 268 146l61 516q-33 47 -99.5 76.5t-131.5 29.5 q-127 0 -223.5 -116.5t-96.5 -311.5z" />
<glyph unicode="A" horiz-adv-x="1138" d="M35 0l381 1393h334l352 -1393h-170l-86 352h-565l-91 -352h-155zM313 487h502l-186 770h-113z" />
<glyph unicode="B" horiz-adv-x="1083" d="M139 51v1342h359q209 0 325.5 -92.5t116.5 -243.5q0 -133 -64.5 -218t-162.5 -116v-4q131 -25 217 -115t86 -215q0 -180 -135.5 -294.5t-337.5 -114.5q-224 -1 -404 71zM297 150q121 -43 246 -44q137 0 223 77t86 206q0 254 -338 254h-217v-493zM297 770h203 q276 0 276 270q0 109 -72.5 165.5t-205.5 56.5h-201v-492z" />
<glyph unicode="C" horiz-adv-x="1173" d="M106 702q0 326 153 518.5t415 192.5q268 0 426 -113l-62 -124q-131 100 -356 100q-205 0 -309.5 -153.5t-104.5 -413.5q0 -274 105.5 -433t304.5 -159q207 0 381 131l49 -125q-205 -143 -438 -143q-276 0 -420 194t-144 528z" />
<glyph unicode="D" horiz-adv-x="1257" d="M133 49v1344h389q303 0 460 -158t157 -526q0 -348 -145.5 -538.5t-413.5 -190.5q-211 -1 -447 69zM291 158q131 -45 295 -45q387 0 387 598q0 295 -108.5 425t-352.5 130h-221v-1108z" />
<glyph unicode="E" d="M139 0v1393h764v-138h-606v-481h481l-20 -139h-461v-504h606v-131h-764z" />
<glyph unicode="F" horiz-adv-x="970" d="M139 0v1393h764v-138h-606v-520h481l-20 -139h-461v-596h-158z" />
<glyph unicode="G" horiz-adv-x="1259" d="M106 711q0 309 159 505.5t446 196.5q238 0 401 -100l-70 -123q-125 84 -333.5 84t-323.5 -158t-115 -401q0 -274 107.5 -437t306.5 -163q188 0 322 65v369h-242l-6 125h395v-580q-242 -115 -479 -114q-268 0 -418 198.5t-150 532.5z" />
<glyph unicode="H" horiz-adv-x="1232" d="M139 0v1393h160v-621h629v621h164v-1393h-164v627h-629v-627h-160z" />
<glyph unicode="I" horiz-adv-x="540" d="M190 0v1393h158v-1393h-158z" />
<glyph unicode="J" horiz-adv-x="774" d="M57 39l27 137q123 -57 229 -57q164 0 164 215v1059h160v-1061q0 -168 -85 -260t-222 -92q-144 0 -273 59z" />
<glyph unicode="K" horiz-adv-x="1044" d="M133 0v1393h158v-443l-8 -227l503 670h195l-541 -691l596 -702h-213l-501 612h-33l2 -221v-391h-158z" />
<glyph unicode="L" horiz-adv-x="954" d="M164 0v1393h158v-1262h606v-131h-764z" />
<glyph unicode="M" horiz-adv-x="1658" d="M145 0l50 1393h278q41 -123 180.5 -601.5t171.5 -623.5h4q80 315 377 1225h258l49 -1393h-170l-40 1241h-7q-59 -242 -122 -401l-267 -840h-194l-283 944q-6 23 -44 149t-44 148h-8l-39 -1241h-150z" />
<glyph unicode="N" horiz-adv-x="1230" d="M139 0v1393h262l527 -1241h12l-6 1241h156v-1393h-277l-518 1233h-10l4 -1233h-150z" />
<glyph unicode="O" horiz-adv-x="1302" d="M106 707q0 143 29 265t90.5 224t169 159.5t254.5 57.5q150 0 259.5 -57.5t170 -158.5t89 -222t28.5 -268q0 -143 -30.5 -269.5t-92 -231t-171 -165.5t-253.5 -61q-145 0 -252.5 58t-169 160.5t-91.5 229.5t-30 279zM270 709q0 -596 379 -596q106 0 183 48t119 135 t60.5 188.5t18.5 224.5q0 113 -18.5 209t-60.5 181t-118.5 133t-183.5 48q-104 0 -181 -49t-118 -134t-60.5 -181t-19.5 -207z" />
<glyph unicode="P" horiz-adv-x="1046" d="M137 0v1393h365q215 0 356 -107.5t141 -310.5q0 -209 -138 -324.5t-359 -115.5h-209v-535h-156zM293 664h199q162 0 250.5 76.5t88.5 230.5q0 141 -92 215t-247 74h-199v-596z" />
<glyph unicode="Q" horiz-adv-x="1296" d="M106 707q0 143 29 265t90.5 224t169 159.5t254.5 57.5q150 0 259.5 -57.5t170 -158.5t89 -222t28.5 -268q0 -244 -102.5 -444t-294.5 -259q203 -72 450 -72v-151q-326 0 -596 199q-80 0 -141 20q-207 47 -306.5 239t-99.5 468zM270 709q0 -596 379 -596q106 0 183 48 t119 135t60.5 188.5t18.5 224.5q0 113 -18.5 209t-60.5 181t-118.5 133t-183.5 48q-104 0 -181 -49t-118 -134t-60.5 -181t-19.5 -207z" />
<glyph unicode="R" horiz-adv-x="1081" d="M139 0v1393h371q217 0 350 -99.5t133 -300.5q0 -283 -276 -393l313 -600h-188l-279 569q-37 -4 -57 -4h-211v-565h-156zM295 696h192q338 0 338 293q0 145 -85 211t-253 66h-192v-570z" />
<glyph unicode="S" horiz-adv-x="1042" d="M82 117l65 127q66 -55 168.5 -93t196.5 -38q133 0 208 70.5t75 191.5q0 74 -38 128t-99.5 87t-134 61.5t-146.5 61t-135.5 74.5t-99.5 112t-38 164q0 147 118 248.5t323 101.5q225 0 393 -100l-55 -127q-141 88 -336 88q-137 0 -209 -60.5t-72 -150.5q0 -88 72 -147.5 t173 -98.5t202.5 -84t173 -134t71.5 -218q0 -170 -122.5 -285.5t-331.5 -115.5q-238 0 -422 137z" />
<glyph unicode="T" horiz-adv-x="989" d="M51 1255v138h887v-138h-377v-1255h-164v1255h-346z" />
<glyph unicode="U" horiz-adv-x="1220" d="M139 514v879h158v-861q0 -178 76 -297.5t239 -119.5q160 0 234 116.5t74 300.5v861h159v-879q0 -233 -117.5 -383.5t-349.5 -150.5q-236 0 -354.5 149t-118.5 385z" />
<glyph unicode="V" horiz-adv-x="1095" d="M16 1393h179q31 -117 183 -657.5l167 -596.5h12l352 1254h168l-405 -1393h-256z" />
<glyph unicode="W" horiz-adv-x="1738" d="M20 1393h181l254 -1256h12l317 1256h187l297 -1256h12l276 1256h162l-321 -1393h-258l-271 1159h-2l-288 -1159h-256z" />
<glyph unicode="X" horiz-adv-x="1083" d="M20 0l449 713l-391 680h192l295 -531l301 531h191l-418 -666l414 -727h-187l-323 578l-332 -578h-191z" />
<glyph unicode="Y" horiz-adv-x="1011" d="M16 1393h193l289 -676h8l319 676h170l-436 -848v-545h-160v547z" />
<glyph unicode="Z" horiz-adv-x="1081" d="M88 0v121l729 1139h-725v133h897v-142l-727 -1122h729v-129h-903z" />
<glyph unicode="[" horiz-adv-x="587" d="M182 -250v1804h344v-143h-188v-1517h188v-144h-344z" />
<glyph unicode="\" horiz-adv-x="614" d="M10 1460h94l500 -1552h-94z" />
<glyph unicode="]" horiz-adv-x="587" d="M61 -106h187v1517h-187v143h345v-1804h-345v144z" />
<glyph unicode="^" horiz-adv-x="921" d="M123 1260l242 170l118 55l316 -225l-62 -86l-276 172l-281 -172z" />
<glyph unicode="_" horiz-adv-x="1429" d="M141 0v115h1147v-115h-1147z" />
<glyph unicode="`" horiz-adv-x="1202" d="M385 1303q2 14 15.5 61t15.5 55l454 -168q-2 -10 -12 -46t-12 -46z" />
<glyph unicode="a" d="M94 287q0 133 93.5 209.5t263.5 76.5h260v80q0 248 -232 248q-158 0 -309 -67l-41 112q178 78 371 78q362 0 362 -362v-662h-106l-27 129q-49 -63 -131 -106t-180 -43q-150 0 -237 87t-87 220zM246 293q0 -94 52 -147.5t159 -53.5q143 0 254 125v250h-238 q-227 0 -227 -174z" />
<glyph unicode="b" horiz-adv-x="1064" d="M135 0v1413h156v-391l-19 -133q53 57 136.5 96t164.5 39q190 0 290 -133t100 -387q0 -256 -115 -390t-303 -134q-166 0 -291 129l-33 -109h-86zM291 211q111 -115 244 -115q135 0 202.5 97.5t67.5 310.5q0 401 -260 401q-145 0 -254 -112v-582z" />
<glyph unicode="c" horiz-adv-x="946" d="M104 502q0 248 122 385t317 137q197 0 327 -80l-45 -110q-109 66 -274 65q-137 0 -214 -104.5t-77 -292.5q0 -401 291 -402q162 0 291 84l32 -116q-156 -88 -331 -88q-203 0 -321 128t-118 394z" />
<glyph unicode="d" horiz-adv-x="1075" d="M104 504q0 233 112 376.5t308 143.5q160 0 269 -86q-8 72 -9 164v311h156v-1413h-117l-12 60q-8 40 -14 61q-45 -59 -124 -100t-165 -41q-182 0 -293 135t-111 389zM262 504q0 -408 268 -408q135 0 254 127v611q-102 72 -243 71q-279 0 -279 -401z" />
<glyph unicode="e" horiz-adv-x="1036" d="M102 508q0 242 113 379t320 137q199 0 299 -137t100 -342v-86h-676q0 -180 85 -269.5t232 -89.5q141 0 312 103l39 -111q-184 -113 -365 -112q-213 0 -336 136t-123 392zM258 563h524q0 94 -21.5 167t-80.5 124t-154 51q-133 0 -200.5 -99.5t-67.5 -242.5z" />
<glyph unicode="f" horiz-adv-x="657" d="M61 885v119h162v90q0 354 336 354q72 0 154 -21l-13 -127q-55 18 -129 19q-100 0 -147 -57.5t-47 -178.5v-79h237v-119h-237v-885h-154v885h-162z" />
<glyph unicode="g" horiz-adv-x="1075" d="M104 504q0 233 112 376.5t308 143.5q172 0 287 -98l27 78h102v-990q0 -193 -114.5 -308.5t-315.5 -115.5q-102 0 -205.5 33t-159.5 72l50 119q47 -35 138 -68t173 -33q137 0 208.5 78t71.5 223l7 105q-45 -59 -123 -99t-162 -40q-182 0 -293 135t-111 389zM262 504 q0 -408 268 -408q135 0 254 127v606q-102 76 -241.5 76t-210 -104t-70.5 -297z" />
<glyph unicode="h" horiz-adv-x="1032" d="M135 0v1413h156v-424q-2 -25 -8.5 -62.5t-6.5 -43.5q131 141 304 141q180 0 263 -98.5t83 -292.5v-633h-160v606q0 295 -229 295q-119 0 -246 -115v-786h-156z" />
<glyph unicode="i" horiz-adv-x="503" d="M104 899v105h263v-1004h-152v877zM201 1235v164h166v-164h-166z" />
<glyph unicode="j" horiz-adv-x="544" d="M-14 -293l18 131q51 -18 98 -18q119 0 119 162v897l-110 22v103h264v-1020q0 -147 -65.5 -225t-180.5 -78q-63 -1 -143 26zM209 1235v164h166v-164h-166z" />
<glyph unicode="k" horiz-adv-x="901" d="M135 0v1413h154v-590l-6 -256l395 437h184l-407 -437l448 -567h-194l-377 487h-43v-487h-154z" />
<glyph unicode="l" horiz-adv-x="538" d="M143 279v1134h154v-1194q0 -66 34 -93.5t115 -27.5h33v-106q-49 -12 -98 -12q-143 0 -190.5 71.5t-47.5 227.5z" />
<glyph unicode="m" horiz-adv-x="1646" d="M135 0v1004h103l32 -121q137 141 305 141q219 0 295 -154q139 154 314 154q354 0 354 -391v-633h-158v606q0 295 -241 295q-121 0 -240 -115q16 -59 16 -153v-633h-157v606q0 150 -51.5 222.5t-174.5 72.5q-115 0 -241 -115v-786h-156z" />
<glyph unicode="n" horiz-adv-x="1040" d="M135 0v1004h105l30 -119q135 139 316 139q340 0 340 -391v-633h-160v606q0 147 -53.5 221t-175.5 74q-119 0 -246 -115v-786h-156z" />
<glyph unicode="o" horiz-adv-x="1060" d="M100 504q0 231 109.5 375.5t318.5 144.5q203 0 318 -144.5t115 -375.5q0 -252 -115 -388t-318 -136q-205 0 -316.5 135t-111.5 389zM258 504q0 -408 270 -408q143 0 208 101.5t65 306.5q0 403 -273 403q-270 0 -270 -403z" />
<glyph unicode="p" horiz-adv-x="1058" d="M135 -389v1393h121l25 -119q125 139 292 139q383 0 383 -520q0 -256 -113.5 -390t-301.5 -134q-156 0 -271 114q23 -117 23 -141v-342h-158zM293 207q104 -111 237 -111q137 0 203 96.5t66 311.5q0 201 -61.5 300t-196.5 99t-248 -117v-579z" />
<glyph unicode="q" horiz-adv-x="1075" d="M104 504q0 233 112 376.5t308 143.5q158 0 289 -94l29 74h98v-1393h-156v391q2 10 8.5 59.5t6.5 59.5q-45 -59 -126 -100t-165 -41q-180 0 -292 136t-112 388zM262 504q0 -408 268 -408q135 0 254 127v606q-96 76 -241 76q-139 0 -210 -104t-71 -297z" />
<glyph unicode="r" horiz-adv-x="694" d="M135 0v1004h105q20 -86 28 -127q106 141 260 141q61 0 127 -17l-10 -133q-51 18 -129 19q-113 0 -225 -109v-778h-156z" />
<glyph unicode="s" horiz-adv-x="841" d="M94 66l45 114q41 -33 114 -58.5t142 -25.5q92 0 145.5 47t53.5 125q0 66 -50 110t-123 70.5t-144.5 58.5t-122 95.5t-50.5 157.5q0 111 85 187.5t247 76.5q182 0 301 -66l-35 -114q-117 61 -264 61q-188 0 -188 -147q0 -59 51 -99.5t124 -67t145.5 -58t123.5 -96 t51 -158.5q0 -127 -93 -213t-255 -86q-164 0 -303 86z" />
<glyph unicode="t" horiz-adv-x="761" d="M63 891v113h152v182l156 49v-231h293v-113h-293v-623q0 -82 30.5 -120.5t102.5 -38.5q78 0 160 49l30 -113q-96 -66 -221 -65q-258 0 -258 307v604h-152z" />
<glyph unicode="u" horiz-adv-x="1034" d="M123 387v617h156v-607q0 -156 53 -224.5t174 -68.5q131 0 248 99v801h157v-1004h-108l-23 115q-121 -135 -311 -135q-346 -1 -346 407z" />
<glyph unicode="v" horiz-adv-x="929" d="M25 1004h172l272 -908h4l270 908h160l-325 -1004h-232z" />
<glyph unicode="w" horiz-adv-x="1413" d="M25 1004h170l174 -893h6l248 893h178l194 -893h6l230 893h158l-285 -1004h-227l-177 825l-128 -451l-103 -374h-219z" />
<glyph unicode="x" horiz-adv-x="884" d="M27 0l327 528l-303 476h195l209 -371l207 371h157l-293 -490l330 -514h-186l-246 412l-240 -412h-157z" />
<glyph unicode="y" horiz-adv-x="964" d="M-10 -332l51 105h12q94 -63 168 -64q88 0 144.5 58.5t103.5 201.5l12 37l-100 -8l-324 1006h172l275 -912l272 912h160l-322 -994q-80 -238 -168 -330t-233 -92q-59 0 -123.5 25.5t-99.5 54.5z" />
<glyph unicode="z" horiz-adv-x="905" d="M82 0v90l563 801h-563v113h737v-109l-547 -784h551v-111h-741z" />
<glyph unicode="{" horiz-adv-x="661" d="M37 602v133l223 107v229q0 297 311 426l52 -117q-109 -66 -156 -135t-47 -188v-211l-164 -150l-49 -32l213 -113v-320q0 -223 203 -323l-52 -115q-182 80 -246.5 196.5t-64.5 325.5v172z" />
<glyph unicode="|" horiz-adv-x="520" d="M182 -346v1841h154v-1839z" />
<glyph unicode="}" horiz-adv-x="661" d="M37 -92q203 94 203 323v320l196 106l19 19l-215 98v283q0 119 -47.5 188.5t-155.5 134.5l53 117q309 -129 309 -405v-250l224 -107v-133l-224 -115v-233q0 -172 -69.5 -278.5t-239.5 -182.5z" />
<glyph unicode="~" horiz-adv-x="1015" d="M147 567q74 184 259 133l239 -67q102 -29 137 61l88 -35q-59 -190 -233 -141l-248 68q-106 27 -151 -58z" />
<glyph unicode="&#xa1;" horiz-adv-x="559" d="M201 115l26 477h105l26 -477v-527h-157v527zM205 772v229h151v-229h-151z" />
<glyph unicode="&#xa3;" horiz-adv-x="946" d="M117 156v131h151v338h-151v106h151v137q0 354 346 355q102 0 209 -33l-24 -119q-84 23 -172 23q-106 0 -153.5 -56.5t-47.5 -177.5v-129h301l-14 -106h-287v-117q-4 -47 -4 -139l-6 -99l96 11q147 6 160 6h153v-131h-708z" />
<glyph unicode="&#xa5;" horiz-adv-x="978" d="M37 1202h186l258 -485h11l280 485h168l-324 -485h189v-115h-262v-135h262v-117h-262v-194h-158v194h-242v117h242v135h-242v115h176z" />
<glyph unicode="&#xa6;" horiz-adv-x="540" d="M195 -344v856h149v-856h-149zM195 641v854h149v-854h-149z" />
<glyph unicode="&#xa7;" horiz-adv-x="966" d="M150 1106q0 113 83.5 188.5t249.5 75.5q176 0 299 -67q-27 -94 -30 -115q-121 63 -267 63q-88 0 -139 -42t-51 -105q0 -49 50 -95t122 -87l142 -85q71 -44 121 -107.5t50 -137.5q0 -10 -4 -35l-434 272q-49 31 -74.5 50.5t-57.5 53.5t-46 76t-14 97zM164 -287l21 53 l24 60q41 -33 113.5 -59.5t140.5 -26.5q86 0 143.5 48t57.5 126q0 55 -49.5 104.5t-118.5 87.5l-141 80q-71 41 -120 101.5t-49 134.5q0 10 4 31l453 -269q80 -47 126 -104t46 -156q0 -127 -95 -214t-257 -87q-154 0 -299 90zM211 623v116l553 -344v-114z" />
<glyph unicode="&#xa8;" horiz-adv-x="1058" d="M246 1186v223h153v-223h-153zM659 1186v223h152v-223h-152z" />
<glyph unicode="&#xa9;" horiz-adv-x="1239" d="M119 868.5q0 206.5 146.5 353t353 146.5t353 -146.5t146.5 -353t-146.5 -353t-353 -146.5t-353 146.5t-146.5 353zM197 868q0 -176 122.5 -299t299 -123t299 123t122.5 299t-122.5 299t-299 123t-299 -123t-122.5 -299zM340 866q0 156 76 232t198 76q109 0 191 -44 l-23 -88q-80 37 -168 37q-80 0 -124 -48t-44 -167t45.5 -164t122.5 -45q92 0 177 54l28 -86q-104 -63 -205 -64q-123 0 -198.5 76.5t-75.5 230.5z" />
<glyph unicode="&#xaa;" horiz-adv-x="880" d="M117 850q0 119 82 179.5t217 60.5h209v47q0 162 -189 161q-135 0 -254 -57l-41 105q147 68 316 67q152 0 229.5 -70.5t77.5 -195.5v-533h-102l-27 127q-96 -147 -264 -147q-111 0 -182.5 69.5t-71.5 186.5zM252 856q0 -74 45 -115t123 -41q117 0 205 123v172h-191 q-182 0 -182 -139z" />
<glyph unicode="&#xab;" horiz-adv-x="901" d="M82 440l295 365l96 -84l-209 -283l209 -305l-96 -74zM426 440l297 359l94 -84l-207 -277l209 -297l-98 -73z" />
<glyph unicode="&#xad;" horiz-adv-x="946" d="M143 508v108h660v-108h-660z" />
<glyph unicode="&#xae;" horiz-adv-x="1239" d="M119 639q0 207 146.5 353.5t353 146.5t353 -146.5t146.5 -353.5t-146.5 -353.5t-353 -146.5t-353 146.5t-146.5 353.5zM197 639q0 -176 122.5 -299t299 -123t299 123t122.5 299t-122.5 299t-299 123t-299 -123t-122.5 -299zM436 332v624h174q102 0 171 -50t69 -148 q0 -164 -160 -201l141 -225h-102l-129 215h-76v-215h-88zM524 621h66q162 0 162 135q0 70 -40 99.5t-124 29.5h-64v-264z" />
<glyph unicode="&#xaf;" horiz-adv-x="1048" d="M180 1202v96h686v-96h-686z" />
<glyph unicode="&#xb0;" horiz-adv-x="997" d="M119 1014q0 158 110.5 267.5t270.5 109.5q158 0 267.5 -110t109.5 -267q0 -162 -110 -271.5t-267 -109.5q-160 0 -270.5 109.5t-110.5 271.5zM248 1014q0 -106 72.5 -179t179 -73t178.5 72.5t72 179.5q0 104 -72 177t-178.5 73t-179 -73t-72.5 -177z" />
<glyph unicode="&#xb1;" horiz-adv-x="976" d="M145 147v117h684v-117h-684zM156 678v121h262v272h133v-272h270v-121h-270v-283h-133v283h-262z" />
<glyph unicode="&#xb2;" horiz-adv-x="864" d="M96 1329q160 82 332 82q143 0 233.5 -70.5t90.5 -177.5q0 -131 -103.5 -246.5t-372.5 -314.5q119 10 230 10h246v-123h-621v125q268 201 365.5 312.5t97.5 199.5q0 76 -51 115t-135 39q-137 0 -258 -68z" />
<glyph unicode="&#xb3;" horiz-adv-x="864" d="M104 553l56 111q102 -74 243 -74q92 0 150.5 42t58.5 116q0 145 -270 145l-12 102q240 0 239 168q0 59 -49 92t-137 33q-127 0 -217 -57l-47 112q131 70 278 70q150 0 235 -65.5t85 -161.5t-54.5 -156.5t-136.5 -75.5q96 -12 165 -63t69 -141q0 -121 -101.5 -200 t-255.5 -79q-176 0 -299 82z" />
<glyph unicode="&#xb4;" horiz-adv-x="1239" d="M385 1251l453 168q2 -8 15 -55t15 -61l-460 -144z" />
<glyph unicode="&#xb6;" horiz-adv-x="1249" d="M98 975q0 205 141.5 311.5t358.5 106.5h469v-1721h-145v1588h-314q-156 0 -249 -74t-93 -215q0 -156 90 -231.5t244 -75.5v450h141v-1442h-141v863q-217 0 -359.5 112.5t-142.5 327.5z" />
<glyph unicode="&#xb7;" horiz-adv-x="362" d="M104 772v229h154v-229h-154z" />
<glyph unicode="&#xb8;" horiz-adv-x="1056" d="M430 -342q143 10 143 117q0 76 -108 104l10 27q129 0 193.5 -31t64.5 -104q0 -100 -95 -152.5t-208 -56.5v96z" />
<glyph unicode="&#xb9;" horiz-adv-x="862" d="M113 981v135q100 18 185 94t138 185h117v-783h227v-118h-647v118h270v408l11 184q-37 -74 -122 -139.5t-179 -83.5z" />
<glyph unicode="&#xba;" horiz-adv-x="997" d="M123 1012q0 197 102.5 299t272.5 102q164 0 270 -103.5t106 -297.5q0 -217 -106 -316.5t-270 -99.5q-160 0 -267.5 98.5t-107.5 317.5zM279 1010q0 -145 63.5 -221t155.5 -76t155.5 69.5t63.5 227.5q0 154 -61.5 220t-158 66t-157.5 -67t-61 -219z" />
<glyph unicode="&#xbb;" horiz-adv-x="909" d="M82 141l207 297l-207 277l94 84l297 -359l-295 -372zM434 133l209 305l-209 283l96 84l297 -365l-295 -381z" />
<glyph unicode="&#xbc;" horiz-adv-x="1937" d="M113 981v135q100 18 185 94t138 185h117v-783h227v-118h-647v118h270v408l11 184q-37 -74 -122 -139.5t-179 -83.5zM721 -92l500 1552h94l-500 -1552h-94zM1126 221v98l260 599l99 -33v-51l-211 -492h287v559h145v-559h119v-121h-119v-221h-145v221h-435z" />
<glyph unicode="&#xbd;" horiz-adv-x="2017" d="M113 981v135q100 18 185 94t138 185h117v-783h227v-118h-647v118h270v408l11 184q-37 -74 -122 -139.5t-179 -83.5zM721 -92l500 1552h94l-500 -1552h-94zM1249 840q160 82 332 82q143 0 233.5 -71t90.5 -177q0 -131 -103.5 -247t-371.5 -314q119 10 229 10h246v-123 h-621v125q268 201 365.5 312.5t97.5 199.5q0 76 -51 115t-135 39q-137 0 -258 -68z" />
<glyph unicode="&#xbe;" horiz-adv-x="1970" d="M113 553l55 111q102 -74 244 -74q92 0 150.5 42t58.5 116q0 145 -271 145l-12 102q240 0 240 168q0 59 -49.5 92t-137.5 33q-127 0 -217 -57l-47 112q131 70 279 70q150 0 234.5 -65.5t84.5 -161.5t-54.5 -156.5t-135.5 -75.5q96 -12 164.5 -63t68.5 -141 q0 -121 -101.5 -200t-254.5 -79q-176 0 -299 82zM674 -66l561 1551l74 -25l-564 -1552zM1159 221v98l260 599l99 -33v-51l-211 -492h286v559h146v-559h119v-121h-119v-221h-146v221h-434z" />
<glyph unicode="&#xbf;" horiz-adv-x="837" d="M66 -39q0 94 35.5 170t86 126t101.5 94t87 100.5t36 121.5v56h141v-84q0 -72 -35 -133.5t-84 -105.5l-98 -89q-49 -45 -84 -107.5t-35 -138.5q0 -129 77 -192.5t191 -63.5q129 0 269 74l45 -117q-180 -84 -332 -84q-174 0 -287.5 97.5t-113.5 275.5zM410 772v229h151 v-229h-151z" />
<glyph unicode="&#xc0;" horiz-adv-x="1138" d="M35 0l381 1393h334l352 -1393h-170l-86 352h-565l-91 -352h-155zM313 487h502l-186 770h-113zM319 1516l3 116l497 -63l-10 -92z" />
<glyph unicode="&#xc1;" horiz-adv-x="1122" d="M29 0l381 1393h333l353 -1393h-170l-86 352h-566l-90 -352h-155zM307 487h502l-186 770h-113zM324 1569l497 63l2 -116l-489 -39z" />
<glyph unicode="&#xc2;" horiz-adv-x="1138" d="M35 0l381 1393h334l352 -1393h-170l-86 352h-565l-91 -352h-155zM256 1559l313 186l314 -186l-41 -89l-273 140l-272 -140zM313 487h502l-186 770h-113z" />
<glyph unicode="&#xc3;" horiz-adv-x="1138" d="M35 0l381 1393h334l352 -1393h-170l-86 352h-565l-91 -352h-155zM242 1550q20 86 87.5 128t159.5 10l195 -70q96 -35 133 59l80 -30q-10 -92 -70.5 -135.5t-150.5 -12.5l-203 72q-102 37 -147 -58zM313 487h502l-186 770h-113z" />
<glyph unicode="&#xc4;" horiz-adv-x="1138" d="M35 0l381 1393h334l352 -1393h-170l-86 352h-565l-91 -352h-155zM287 1479v223h153v-223h-153zM313 487h502l-186 770h-113zM700 1479v223h152v-223h-152z" />
<glyph unicode="&#xc5;" horiz-adv-x="1138" d="M35 0l381 1393h334l352 -1393h-170l-86 352h-565l-91 -352h-155zM313 487h502l-186 770h-113zM324 1679.5q0 102.5 71.5 173t174 70.5t173 -70.5t70.5 -173t-70.5 -173t-173 -70.5t-174 70.5t-71.5 173zM430 1677.5q0 -59.5 40 -99.5t99.5 -40t99.5 40t40 99.5t-40 100.5 t-99.5 41t-99.5 -41t-40 -100.5z" />
<glyph unicode="&#xc6;" horiz-adv-x="1560" d="M35 0l454 1393h981v-138h-606v-481h482l-21 -139h-461v-504h606v-131h-763v344h-406l-111 -344h-155zM344 479h363v776h-113z" />
<glyph unicode="&#xc7;" horiz-adv-x="1179" d="M115 702q0 326 152.5 518.5t414.5 192.5q268 0 426 -113l-61 -124q-131 100 -357 100q-205 0 -309.5 -153.5t-104.5 -413.5q0 -274 105.5 -433t304.5 -159q207 0 381 131l49 -125q-205 -143 -438 -143q-276 0 -419.5 194t-143.5 528zM438 -342q143 10 144 117 q0 76 -109 104l10 27q129 0 193.5 -31t64.5 -104q0 -100 -95 -152.5t-208 -56.5v96z" />
<glyph unicode="&#xc8;" d="M139 0v1393h764v-138h-606v-481h481l-20 -139h-461v-504h606v-131h-764zM246 1516l2 116l497 -63l-10 -92z" />
<glyph unicode="&#xc9;" d="M139 0v1393h764v-138h-606v-481h481l-20 -139h-461v-504h606v-131h-764zM254 1569l498 63l2 -116l-490 -39z" />
<glyph unicode="&#xca;" d="M139 0v1393h764v-138h-606v-481h481l-20 -139h-461v-504h606v-131h-764zM182 1559l314 186l313 -186l-41 -89l-272 140l-273 -140z" />
<glyph unicode="&#xcb;" d="M139 0v1393h764v-138h-606v-481h481l-20 -139h-461v-504h606v-131h-764zM213 1479v223h154v-223h-154zM627 1479v223h151v-223h-151z" />
<glyph unicode="&#xcc;" horiz-adv-x="540" d="M20 1516l3 116l497 -63l-10 -92zM190 0v1393h158v-1393h-158z" />
<glyph unicode="&#xcd;" horiz-adv-x="520" d="M10 1569l498 63l2 -116l-490 -39zM180 0v1393h158v-1393h-158z" />
<glyph unicode="&#xce;" horiz-adv-x="540" d="M-43 1559l313 186l314 -186l-41 -89l-273 140l-272 -140zM190 0v1393h158v-1393h-158z" />
<glyph unicode="&#xcf;" horiz-adv-x="540" d="M-12 1479v223h153v-223h-153zM190 0v1393h158v-1393h-158zM401 1479v223h152v-223h-152z" />
<glyph unicode="&#xd1;" horiz-adv-x="1275" d="M162 0v1393h262l526 -1241h13l-7 1241h156v-1393h-276l-519 1233h-10l4 -1233h-149zM309 1550q20 86 88 128t160 10l195 -70q96 -35 133 59l80 -30q-10 -92 -70.5 -135.5t-151.5 -12.5l-202 72q-102 37 -148 -58z" />
<glyph unicode="&#xd2;" horiz-adv-x="1298" d="M104 707q0 143 29 265t90.5 224t169 159.5t254.5 57.5q150 0 259.5 -57.5t170 -158.5t89 -222t28.5 -268q0 -143 -30.5 -269.5t-92 -231t-171 -165.5t-253.5 -61q-145 0 -252.5 58t-169 160.5t-91.5 229.5t-30 279zM268 709q0 -596 379 -596q106 0 183 48t119 135 t60.5 188.5t18.5 224.5q0 113 -18.5 209t-60.5 181t-118.5 133t-183.5 48q-104 0 -181 -49t-118 -134t-60.5 -181t-19.5 -207zM399 1516l2 116l498 -63l-10 -92z" />
<glyph unicode="&#xd3;" horiz-adv-x="1298" d="M104 707q0 143 29 265t90.5 224t169 159.5t254.5 57.5q150 0 259.5 -57.5t170 -158.5t89 -222t28.5 -268q0 -143 -30.5 -269.5t-92 -231t-171 -165.5t-253.5 -61q-145 0 -252.5 58t-169 160.5t-91.5 229.5t-30 279zM268 709q0 -596 379 -596q106 0 183 48t119 135 t60.5 188.5t18.5 224.5q0 113 -18.5 209t-60.5 181t-118.5 133t-183.5 48q-104 0 -181 -49t-118 -134t-60.5 -181t-19.5 -207zM399 1569l498 63l2 -116l-489 -39z" />
<glyph unicode="&#xd4;" horiz-adv-x="1298" d="M104 707q0 143 29 265t90.5 224t169 159.5t254.5 57.5q150 0 259.5 -57.5t170 -158.5t89 -222t28.5 -268q0 -143 -30.5 -269.5t-92 -231t-171 -165.5t-253.5 -61q-145 0 -252.5 58t-169 160.5t-91.5 229.5t-30 279zM268 709q0 -596 379 -596q106 0 183 48t119 135 t60.5 188.5t18.5 224.5q0 113 -18.5 209t-60.5 181t-118.5 133t-183.5 48q-104 0 -181 -49t-118 -134t-60.5 -181t-19.5 -207zM336 1559l313 186l314 -186l-41 -89l-273 140l-272 -140z" />
<glyph unicode="&#xd5;" horiz-adv-x="1298" d="M104 707q0 143 29 265t90.5 224t169 159.5t254.5 57.5q150 0 259.5 -57.5t170 -158.5t89 -222t28.5 -268q0 -143 -30.5 -269.5t-92 -231t-171 -165.5t-253.5 -61q-145 0 -252.5 58t-169 160.5t-91.5 229.5t-30 279zM268 709q0 -596 379 -596q106 0 183 48t119 135 t60.5 188.5t18.5 224.5q0 113 -18.5 209t-60.5 181t-118.5 133t-183.5 48q-104 0 -181 -49t-118 -134t-60.5 -181t-19.5 -207zM322 1550q20 86 87.5 128t159.5 10l195 -70q96 -35 133 59l80 -30q-10 -92 -70.5 -135.5t-150.5 -12.5l-203 72q-102 37 -147 -58z" />
<glyph unicode="&#xd6;" horiz-adv-x="1298" d="M104 707q0 143 29 265t90.5 224t169 159.5t254.5 57.5q150 0 259.5 -57.5t170 -158.5t89 -222t28.5 -268q0 -143 -30.5 -269.5t-92 -231t-171 -165.5t-253.5 -61q-145 0 -252.5 58t-169 160.5t-91.5 229.5t-30 279zM268 709q0 -596 379 -596q106 0 183 48t119 135 t60.5 188.5t18.5 224.5q0 113 -18.5 209t-60.5 181t-118.5 133t-183.5 48q-104 0 -181 -49t-118 -134t-60.5 -181t-19.5 -207zM367 1479v223h153v-223h-153zM780 1479v223h152v-223h-152z" />
<glyph unicode="&#xd7;" horiz-adv-x="907" d="M166 344l201 201l-193 192l86 86l193 -192l198 198l84 -84l-198 -200l200 -197l-88 -86l-196 197l-201 -201z" />
<glyph unicode="&#xd9;" horiz-adv-x="1220" d="M139 514v879h158v-861q0 -178 76 -297.5t239 -119.5q160 0 234 116.5t74 300.5v861h159v-879q0 -233 -117.5 -383.5t-349.5 -150.5q-236 0 -354.5 149t-118.5 385zM365 1516l2 116l497 -63l-10 -92z" />
<glyph unicode="&#xda;" horiz-adv-x="1220" d="M139 514v879h158v-861q0 -178 76 -297.5t239 -119.5q160 0 234 116.5t74 300.5v861h159v-879q0 -233 -117.5 -383.5t-349.5 -150.5q-236 0 -354.5 149t-118.5 385zM360 1569l498 63l2 -116l-489 -39z" />
<glyph unicode="&#xdb;" horiz-adv-x="1220" d="M139 514v879h158v-861q0 -178 76 -297.5t239 -119.5q160 0 234 116.5t74 300.5v861h159v-879q0 -233 -117.5 -383.5t-349.5 -150.5q-236 0 -354.5 149t-118.5 385zM297 1559l313 186l314 -186l-41 -89l-273 140l-272 -140z" />
<glyph unicode="&#xdc;" horiz-adv-x="1251" d="M154 514v879h157v-861q0 -178 76 -297.5t240 -119.5q160 0 233.5 116.5t73.5 300.5v861h160v-879q0 -233 -118 -383.5t-349 -150.5q-236 0 -354.5 149t-118.5 385zM342 1479v223h154v-223h-154zM756 1479v223h151v-223h-151z" />
<glyph unicode="&#xdd;" horiz-adv-x="1011" d="M16 1393h193l289 -676h8l319 676h170l-436 -848v-545h-160v547zM365 1569l497 63l2 -116l-489 -39z" />
<glyph unicode="&#xdf;" horiz-adv-x="1153" d="M61 885v119h160v86q0 166 106.5 262t286.5 96q162 0 260.5 -87t98.5 -224q0 -70 -29 -120t-71 -80t-83.5 -56.5t-70.5 -63.5t-29 -84q0 -55 44 -90t106.5 -57.5t125 -51t106.5 -91t44 -156.5q0 -127 -95 -217t-257 -90q-147 0 -277 83v130q41 -33 127 -65t150 -32 q94 0 147.5 50.5t53.5 132.5q0 68 -43 110.5t-106 67.5l-124 51q-61 27 -104 83t-43 144q0 78 43 133.5t96 82t96 73.5t43 111q0 82 -59 135t-154 53q-111 0 -171 -62.5t-60 -183.5v-1077h-158v885h-160z" />
<glyph unicode="&#xe0;" d="M94 287q0 133 93.5 209.5t263.5 76.5h260v80q0 248 -232 248q-158 0 -309 -67l-41 112q178 78 371 78q362 0 362 -362v-662h-106l-27 129q-49 -63 -131 -106t-180 -43q-150 0 -237 87t-87 220zM246 293q0 -94 52 -147.5t159 -53.5q143 0 254 125v250h-238 q-227 0 -227 -174zM270 1303q2 14 15.5 61t15.5 55l455 -168q-2 -10 -12.5 -46t-12.5 -46z" />
<glyph unicode="&#xe1;" d="M94 287q0 133 93.5 209.5t263.5 76.5h260v80q0 248 -232 248q-158 0 -309 -67l-41 112q178 78 371 78q362 0 362 -362v-662h-106l-27 129q-49 -63 -131 -106t-180 -43q-150 0 -237 87t-87 220zM246 293q0 -94 52 -147.5t159 -53.5q143 0 254 125v250h-238 q-227 0 -227 -174zM256 1251l453 168q2 -8 15 -55t15 -61l-460 -144z" />
<glyph unicode="&#xe2;" d="M94 287q0 133 93.5 209.5t263.5 76.5h260v80q0 248 -232 248q-158 0 -309 -67l-41 112q178 78 371 78q362 0 362 -362v-662h-106l-27 129q-49 -63 -131 -106t-180 -43q-150 0 -237 87t-87 220zM184 1243l314 187l313 -187l-41 -88l-272 139l-273 -139zM246 293 q0 -94 52 -147.5t159 -53.5q143 0 254 125v250h-238q-227 0 -227 -174z" />
<glyph unicode="&#xe3;" d="M94 287q0 133 93.5 209.5t263.5 76.5h260v80q0 248 -232 248q-158 0 -309 -67l-41 112q178 78 371 78q362 0 362 -362v-662h-106l-27 129q-49 -63 -131 -106t-180 -43q-150 0 -237 87t-87 220zM170 1233q20 86 88 128t160 9l194 -70q96 -35 133 60l80 -31 q-10 -92 -70.5 -135t-150.5 -12l-203 71q-102 37 -147 -57zM246 293q0 -94 52 -147.5t159 -53.5q143 0 254 125v250h-238q-227 0 -227 -174z" />
<glyph unicode="&#xe4;" d="M94 287q0 133 93.5 209.5t263.5 76.5h260v80q0 248 -232 248q-158 0 -309 -67l-41 112q178 78 371 78q362 0 362 -362v-662h-106l-27 129q-49 -63 -131 -106t-180 -43q-150 0 -237 87t-87 220zM213 1186v223h154v-223h-154zM246 293q0 -94 52 -147.5t159 -53.5 q143 0 254 125v250h-238q-227 0 -227 -174zM627 1186v223h151v-223h-151z" />
<glyph unicode="&#xe5;" d="M94 287q0 133 93.5 209.5t263.5 76.5h260v80q0 248 -232 248q-158 0 -309 -67l-41 112q178 78 371 78q362 0 362 -362v-662h-106l-27 129q-49 -63 -131 -106t-180 -43q-150 0 -237 87t-87 220zM246 293q0 -94 52 -147.5t159 -53.5q143 0 254 125v250h-238 q-227 0 -227 -174zM254 1331.5q0 102.5 71.5 173t174 70.5t173 -70.5t70.5 -173t-70.5 -173.5t-173 -71t-174 71t-71.5 173.5zM360 1329.5q0 -59.5 40 -99.5t99.5 -40t99.5 40t40 99.5t-40 100t-99.5 40.5t-99.5 -40.5t-40 -100z" />
<glyph unicode="&#xe6;" horiz-adv-x="1642" d="M94 287q0 131 94.5 205.5t262.5 74.5h260v86q0 248 -228 248q-156 0 -313 -70l-41 115q178 78 371 78q229 0 311 -170q109 170 330 170q199 0 299 -137t100 -342v-84h-676q0 -180 85 -270.5t233 -90.5q141 0 311 103q2 -6 18.5 -51.5t20.5 -59.5q-184 -113 -365 -112 q-139 0 -235 56t-141 152h-9q-49 -86 -146 -147t-218 -61q-150 0 -237 88t-87 219zM246 293q0 -201 211 -201q78 0 145.5 41t108.5 100v230h-238q-227 0 -227 -170zM864 565h525q0 147 -59.5 243.5t-196.5 96.5q-133 0 -201 -98.5t-68 -241.5z" />
<glyph unicode="&#xe7;" horiz-adv-x="948" d="M104 502q0 248 122 385t317 137q197 0 327 -80l-45 -110q-109 66 -274 65q-137 0 -214 -104.5t-77 -292.5q0 -401 291 -402q162 0 291 84l32 -116q-156 -88 -331 -88q-203 0 -321 128t-118 394zM430 -342q143 10 143 117q0 76 -108 104l10 27q129 0 193.5 -31t64.5 -104 q0 -100 -95 -152.5t-208 -56.5v96z" />
<glyph unicode="&#xe8;" horiz-adv-x="1036" d="M102 508q0 242 113 379t320 137q199 0 299 -137t100 -342v-86h-676q0 -180 85 -269.5t232 -89.5q141 0 312 103l39 -111q-184 -113 -365 -112q-213 0 -336 136t-123 392zM258 563h524q0 94 -21.5 167t-80.5 124t-154 51q-133 0 -200.5 -99.5t-67.5 -242.5zM295 1303 q2 14 15.5 61t15.5 55l454 -168q-2 -10 -12 -46t-12 -46z" />
<glyph unicode="&#xe9;" horiz-adv-x="1036" d="M102 508q0 242 113 379t320 137q199 0 299 -137t100 -342v-86h-676q0 -180 85 -269.5t232 -89.5q141 0 312 103l39 -111q-184 -113 -365 -112q-213 0 -336 136t-123 392zM258 563h524q0 94 -21.5 167t-80.5 124t-154 51q-133 0 -200.5 -99.5t-67.5 -242.5zM279 1251 l452 168q2 -8 15.5 -55t15.5 -61l-461 -144z" />
<glyph unicode="&#xea;" horiz-adv-x="1036" d="M102 508q0 242 113 379t320 137q199 0 299 -137t100 -342v-86h-676q0 -180 85 -269.5t232 -89.5q141 0 312 103l39 -111q-184 -113 -365 -112q-213 0 -336 136t-123 392zM209 1243l313 187l314 -187l-41 -88l-273 139l-272 -139zM258 563h524q0 94 -21.5 167t-80.5 124 t-154 51q-133 0 -200.5 -99.5t-67.5 -242.5z" />
<glyph unicode="&#xeb;" horiz-adv-x="1036" d="M102 508q0 242 113 379t320 137q199 0 299 -137t100 -342v-86h-676q0 -180 85 -269.5t232 -89.5q141 0 312 103l39 -111q-184 -113 -365 -112q-213 0 -336 136t-123 392zM238 1186v223h153v-223h-153zM258 563h524q0 94 -21.5 167t-80.5 124t-154 51q-133 0 -200.5 -99.5 t-67.5 -242.5zM651 1186v223h152v-223h-152z" />
<glyph unicode="&#xec;" horiz-adv-x="505" d="M10 1303q2 14 15.5 61t15.5 55l455 -168q-2 -10 -12.5 -46t-12.5 -46zM104 899v105h263v-1004h-152v877z" />
<glyph unicode="&#xed;" horiz-adv-x="505" d="M12 1251l453 168q2 -8 15.5 -55t15.5 -61l-461 -144zM104 899v105h263v-1004h-152v877z" />
<glyph unicode="&#xee;" horiz-adv-x="505" d="M-59 1243l313 187l313 -187l-41 -88l-272 139l-272 -139zM104 899v105h263v-1004h-152v877z" />
<glyph unicode="&#xef;" horiz-adv-x="505" d="M-29 1186v223h154v-223h-154zM104 899v105h263v-1004h-152v877zM385 1186v223h152v-223h-152z" />
<glyph unicode="&#xf1;" horiz-adv-x="1040" d="M135 0v1004h105l30 -119q135 139 316 139q340 0 340 -391v-633h-160v606q0 147 -53.5 221t-175.5 74q-119 0 -246 -115v-786h-156zM195 1233q20 86 87.5 128t159.5 9l195 -70q96 -35 133 60l80 -31q-10 -92 -70.5 -135t-150.5 -12l-203 71q-102 37 -147 -57z" />
<glyph unicode="&#xf2;" horiz-adv-x="1060" d="M100 504q0 231 109.5 375.5t318.5 144.5q203 0 318 -144.5t115 -375.5q0 -252 -115 -388t-318 -136q-205 0 -316.5 135t-111.5 389zM258 504q0 -408 270 -408q143 0 208 101.5t65 306.5q0 403 -273 403q-270 0 -270 -403zM307 1303q2 14 15.5 61t15.5 55l455 -168 q-2 -10 -12.5 -46t-12.5 -46z" />
<glyph unicode="&#xf3;" horiz-adv-x="1060" d="M100 504q0 231 109.5 375.5t318.5 144.5q203 0 318 -144.5t115 -375.5q0 -252 -115 -388t-318 -136q-205 0 -316.5 135t-111.5 389zM258 504q0 -408 270 -408q143 0 208 101.5t65 306.5q0 403 -273 403q-270 0 -270 -403zM289 1251l452 168q2 -8 15.5 -55t15.5 -61 l-461 -144z" />
<glyph unicode="&#xf4;" horiz-adv-x="1060" d="M100 504q0 231 109.5 375.5t318.5 144.5q203 0 318 -144.5t115 -375.5q0 -252 -115 -388t-318 -136q-205 0 -316.5 135t-111.5 389zM217 1243l313 187l314 -187l-41 -88l-273 139l-272 -139zM258 504q0 -408 270 -408q143 0 208 101.5t65 306.5q0 403 -273 403 q-270 0 -270 -403z" />
<glyph unicode="&#xf5;" horiz-adv-x="1060" d="M100 504q0 231 109.5 375.5t318.5 144.5q203 0 318 -144.5t115 -375.5q0 -252 -115 -388t-318 -136q-205 0 -316.5 135t-111.5 389zM205 1233q20 86 87.5 128t160.5 9l194 -70q96 -35 133 60l80 -31q-10 -92 -70.5 -135t-150.5 -12l-203 71q-102 37 -147 -57zM258 504 q0 -408 270 -408q143 0 208 101.5t65 306.5q0 403 -273 403q-270 0 -270 -403z" />
<glyph unicode="&#xf6;" horiz-adv-x="1060" d="M100 504q0 231 109.5 375.5t318.5 144.5q203 0 318 -144.5t115 -375.5q0 -252 -115 -388t-318 -136q-205 0 -316.5 135t-111.5 389zM248 1186v223h153v-223h-153zM258 504q0 -408 270 -408q143 0 208 101.5t65 306.5q0 403 -273 403q-270 0 -270 -403zM662 1186v223h151 v-223h-151z" />
<glyph unicode="&#xf7;" horiz-adv-x="935" d="M137 502v112h660v-112h-660zM391 39v225h150v-225h-150zM391 829v226h150v-226h-150z" />
<glyph unicode="&#xf9;" horiz-adv-x="1034" d="M123 387v617h156v-607q0 -156 53 -224.5t174 -68.5q131 0 248 99v801h157v-1004h-108l-23 115q-121 -135 -311 -135q-346 -1 -346 407zM293 1303q2 14 15.5 61t15.5 55l454 -168q-2 -10 -12 -46t-12 -46z" />
<glyph unicode="&#xfa;" horiz-adv-x="1034" d="M123 387v617h156v-607q0 -156 53 -224.5t174 -68.5q131 0 248 99v801h157v-1004h-108l-23 115q-121 -135 -311 -135q-346 -1 -346 407zM276 1251l453 168q2 -8 15.5 -55t15.5 -61l-461 -144z" />
<glyph unicode="&#xfb;" horiz-adv-x="1034" d="M123 387v617h156v-607q0 -156 53 -224.5t174 -68.5q131 0 248 99v801h157v-1004h-108l-23 115q-121 -135 -311 -135q-346 -1 -346 407zM205 1243l313 187l313 -187l-40 -88l-273 139l-272 -139z" />
<glyph unicode="&#xfc;" horiz-adv-x="1034" d="M123 387v617h156v-607q0 -156 53 -224.5t174 -68.5q131 0 248 99v801h157v-1004h-108l-23 115q-121 -135 -311 -135q-346 -1 -346 407zM238 1186v223h153v-223h-153zM651 1186v223h152v-223h-152z" />
<glyph unicode="&#xfd;" horiz-adv-x="921" d="M-8 -332l51 105h12q96 -63 168 -64q88 0 144.5 58.5t103.5 201.5l12 37l-100 -8l-324 1006h172l275 -912l272 912h160l-322 -994q-80 -238 -168 -330t-233 -92q-59 0 -123.5 25.5t-99.5 54.5zM221 1251l453 168q2 -8 15 -55t16 -61l-461 -144z" />
<glyph unicode="&#xff;" horiz-adv-x="921" d="M-8 -332l51 105h12q96 -63 168 -64q88 0 144.5 58.5t103.5 201.5l12 37l-100 -8l-324 1006h172l275 -912l272 912h160l-322 -994q-80 -238 -168 -330t-233 -92q-59 0 -123.5 25.5t-99.5 54.5zM178 1186v223h154v-223h-154zM592 1186v223h151v-223h-151z" />
<glyph unicode="&#x152;" horiz-adv-x="1878" d="M109 707q0 115 16 215t56 191t100.5 156.5t153.5 104.5t212 39q246 0 379 -190l-2 170h764v-138h-606v-481h479l-21 -139h-458v-504h606v-131h-764l2 188q-135 -209 -379 -208q-145 0 -251.5 57t-168 160.5t-90 230.5t-28.5 279zM272 709q0 -596 375 -596q373 0 373 596 q0 115 -17.5 210t-57.5 180t-115.5 133t-182.5 48q-104 0 -180 -49t-117 -134t-59.5 -181t-18.5 -207z" />
<glyph unicode="&#x153;" horiz-adv-x="1736" d="M100 504q0 231 109.5 375.5t318.5 144.5q238 0 351 -215q109 215 356 215q199 0 299 -137t100 -342v-86h-676q0 -180 85 -269.5t235 -89.5q137 0 311 103l39 -111q-188 -113 -366 -112q-262 0 -377 215q-109 -215 -357 -215q-205 0 -316.5 135t-111.5 389zM258 504 q0 -408 270 -408q143 0 208 101.5t65 306.5q0 403 -273 403q-270 0 -270 -403zM958 563h527q0 94 -21.5 167t-81 124t-153.5 51q-135 0 -203 -99.5t-68 -242.5z" />
<glyph unicode="&#x178;" horiz-adv-x="1011" d="M16 1393h193l289 -676h8l319 676h170l-436 -848v-545h-160v547zM223 1479v223h154v-223h-154zM637 1479v223h151v-223h-151z" />
<glyph unicode="&#x2c6;" horiz-adv-x="1052" d="M213 1243l313 187l314 -187l-41 -88l-273 139l-272 -139z" />
<glyph unicode="&#x2dc;" horiz-adv-x="1218" d="M281 1233q20 86 87.5 128t159.5 9l195 -70q96 -35 133 60l80 -31q-10 -92 -70.5 -135t-150.5 -12l-203 71q-102 37 -147 -57z" />
<glyph unicode="&#x2000;" horiz-adv-x="960" />
<glyph unicode="&#x2001;" horiz-adv-x="1923" />
<glyph unicode="&#x2002;" horiz-adv-x="960" />
<glyph unicode="&#x2003;" horiz-adv-x="1923" />
<glyph unicode="&#x2004;" horiz-adv-x="641" />
<glyph unicode="&#x2005;" horiz-adv-x="479" />
<glyph unicode="&#x2006;" horiz-adv-x="319" />
<glyph unicode="&#x2007;" horiz-adv-x="319" />
<glyph unicode="&#x2008;" horiz-adv-x="239" />
<glyph unicode="&#x2009;" horiz-adv-x="382" />
<glyph unicode="&#x200a;" horiz-adv-x="106" />
<glyph unicode="&#x2010;" horiz-adv-x="946" d="M143 508v108h660v-108h-660z" />
<glyph unicode="&#x2011;" horiz-adv-x="946" d="M143 508v108h660v-108h-660z" />
<glyph unicode="&#x2012;" horiz-adv-x="946" d="M143 508v108h660v-108h-660z" />
<glyph unicode="&#x2013;" horiz-adv-x="964" d="M152 512v113h659v-113h-659z" />
<glyph unicode="&#x2014;" horiz-adv-x="1544" d="M150 510v115h1245v-115h-1245z" />
<glyph unicode="&#x2018;" horiz-adv-x="438" d="M78 852q6 295 168 561l116 -27q-121 -238 -122 -534h-162z" />
<glyph unicode="&#x2019;" horiz-adv-x="438" d="M76 879q121 238 121 534h163q-6 -299 -167 -561z" />
<glyph unicode="&#x201a;" horiz-adv-x="438" d="M76 -326q121 242 121 535h163q-6 -297 -167 -559z" />
<glyph unicode="&#x201c;" horiz-adv-x="702" d="M88 852q2 279 174 561l117 -27q-127 -242 -129 -534h-162zM350 852q2 303 148 555l116 -27q-98 -201 -102 -528h-162z" />
<glyph unicode="&#x201d;" horiz-adv-x="702" d="M86 885q98 201 102 528h162q-2 -303 -147 -555zM322 879q127 242 129 534h161q-2 -285 -174 -561z" />
<glyph unicode="&#x201e;" horiz-adv-x="702" d="M86 -311q98 201 102 528h162q-2 -303 -147 -553zM322 -317q127 242 129 534h161q-2 -283 -174 -559z" />
<glyph unicode="&#x2022;" horiz-adv-x="737" d="M295 377q-53 276 0 510h145q57 -227 0 -510h-145z" />
<glyph unicode="&#x2026;" horiz-adv-x="1105" d="M106 0v229h154v-229h-154zM475 0v229h156v-229h-156zM846 0v229h153v-229h-153z" />
<glyph unicode="&#x202f;" horiz-adv-x="382" />
<glyph unicode="&#x2039;" horiz-adv-x="548" d="M82 438l297 365l96 -80l-209 -285l209 -307q-12 -8 -51 -36.5t-45 -33.5z" />
<glyph unicode="&#x203a;" horiz-adv-x="548" d="M74 131l209 307l-209 285l96 80l295 -365l-295 -377z" />
<glyph unicode="&#x205f;" horiz-adv-x="479" />
<glyph unicode="&#x20ac;" horiz-adv-x="1054" d="M102 522v105h121q-2 20 -2 61q0 43 2 66h-121v104h136q35 180 145.5 272.5t255.5 92.5q166 0 299 -68l-33 -117q-115 61 -258 62q-96 0 -160.5 -62.5t-91.5 -179.5h289q-8 -70 -14 -104h-289q-2 -20 -2 -66q0 -41 2 -61h270l-12 -105h-248q23 -137 86.5 -195.5 t169.5 -58.5q141 0 268 82l31 -117q-152 -86 -307 -86q-346 0 -406 375h-131z" />
<glyph unicode="&#x2122;" horiz-adv-x="1695" d="M184 842h508l156 487l156 -487h507l-409 -299l155 -482l-409 299l-410 -299l156 482z" />
<glyph unicode="&#xe000;" horiz-adv-x="1004" d="M0 1005h1005v-1005h-1005v1005z" />
<glyph unicode="&#xfb01;" horiz-adv-x="1081" d="M61 885v119h160v90q0 354 330 354q68 0 149 -21v-127q-55 18 -135 19q-102 0 -146 -57.5t-44 -178.5v-79h571v-1004h-153v885h-418v-885h-154v885h-160zM778 1235v164h164v-164h-164z" />
<glyph unicode="&#xfb02;" horiz-adv-x="1183" d="M61 885v119h160v90q0 354 334 354q72 0 154 -21l-13 -127q-55 18 -129 19q-100 0 -146 -57.5t-46 -178.5v-79h235v-119h-235v-885h-154v885h-160zM788 279v1134h154v-1194q0 -66 34 -93.5t116 -27.5h32v-106q-49 -12 -98 -12q-143 0 -190.5 71.5t-47.5 227.5z" />
<glyph unicode="&#xfb03;" horiz-adv-x="1617" d="M61 885v119h160v90q0 354 334 354q72 0 154 -21l-13 -127q-55 18 -129 19q-193 0 -192 -236v-79h383v90q0 354 329 354q68 0 150 -21v-127q-55 18 -137 19q-188 0 -189 -236v-79h570v-1004h-152v885h-418v-885h-153v885h-383v-885h-154v885h-160zM1313 1235v164h166v-164 h-166z" />
<glyph unicode="&#xfb04;" horiz-adv-x="1720" d="M61 885v119h160v90q0 354 334 354q72 0 154 -21l-13 -127q-55 18 -129 19q-193 0 -192 -236v-79h383v90q0 354 334 354q68 0 153 -21l-12 -127q-55 18 -129 19q-193 0 -193 -236v-79h234v-119h-234v-885h-153v885h-383v-885h-154v885h-160zM1323 279v1134h156v-1194 q0 -66 34.5 -93.5t114.5 -27.5h33v-106q-49 -12 -98 -12q-143 0 -191.5 71.5t-48.5 227.5z" />
</font>
</defs>
</svg>
